Help - Search - Members - Calendar
Full Version: Ethereal - Opus Aethereum (2015)
Metal Area - Extreme Music Portal > Releases Area / Релизы > Archive
aesteticvice


*Artist: Ethereal
*Album: Opus Aethereum
*Year: 2015
*Genre: Symphonic Death/Black Metal
*Country: United Kingdom
*Format: mp3@CBR320kbps
*Size: 98MB

Tracklist:
01. Nomicon
02. Overwrite the Archetype
03. Unholy Ungodly
04. Psalm of the Deceiver
05. Devouring the Forsaken
06. Contorted Utopia
07. Aethereum
08. Waking Death
******************************
Total playing time: 40:03




Extended info
NAUT : Vocals -
IYAAN : Rhythm Guitars -
M-Inanz : Lead Guitars -
VOLF : Bass -
MORDRATH : Drums


Technical info

Input File: 02. Overwrite the Archetype.mp3
Channels : 2
Sample Rate : 44100
Precision : 16-bit
Duration : 00:05:47.78 = 15336966 samples = 26083.3 CDDA sectors
File Size : 14.1M
Bit Rate : 325k
Sample Encoding: MPEG audio (layer I, II or III)
Comments :
Title=Overwrite the Archetype
Artist=Ethereal
Album=Opus Aethereum
Tracknumber=2/8
Year=2015



[ Hidden Text ]
DenisKov
Вспомнились Боргиры, но только более прямолинейно, зло, менее симфонично - не моё.
Cronopio
Thank you.
ArtiZenit
Второй раз послушал, неплохо, забираю в проигрыватель, расслушаем-с. 20.gif По первым разам нравится, немного спешат, правда, из-за этого всё сумбурно, но мелодии есть, поэтому можно похвалить. smile3.gif
raw
[ Hidden Text ]
orloff2000
Thank you very much, but unfortunately the link is no longer available 6.gif
Can anyone help?
Borderline1991
[ Hidden Text ]
This is a "lo-fi" version of our main content. To view the full version with more information, formatting and images, please click here.
Invision Power Board © 2001-2021 Invision Power Services, Inc.