Help - Search - Members - Calendar
Full Version: Sühnopfer - Offertoire (2014)
Metal Area - Extreme Music Portal > Releases Area / Релизы > New Releases > Lossless
necroscum


*Artist: Sühnopfer
*Album: Offertoire
*Year: 2014
*Genre: Melodic Black Metal
*Country: France
*Format: mp3@VBR279kbps
*Size: 100MB

Tracklist:
01. Introït - Saints Mystères 07:41
02. Sonnent Les Aurisses (Montmorillon) 05:53
03. Les Légendes De l'Ours 07:12
04. Majestueux Repaire 02:57
05. Chevalier Maudit 08:02
06. La Tour Du Pendu 06:47
07. Messe Des Morts 10:34
******************************
Total playing time: 49:06





Extended info

Input File: 02. Sonnent les Aurisses.mp3
Channels : 2
Sample Rate : 44100
Precision : 16-bit
Duration : 00:05:53.83 = 15603815 samples = 26537.1 CDDA sectors
File Size : 12.7M
Bit Rate : 287k
Sample Encoding: MPEG audio (layer I, II or III)
Comments :
Title=Sonnent les Aurisses
Artist=Suhnopfer
Album=Offertoire
Tracknumber=2
Year=2014
Genre=Black Metal


[ Hidden Text ]
neoatheist
Шикарнейший опус! pray.gif
Hughes
Примитивный "Medieval Black Metal"(Ютюб) с истеричным визгом вместо вокала.
pfk505
[ Hidden Text ]
Moonshtook
ЦИТАТА(hughes @ Feb 5 2015, 11:51:31) *
Примитивный "Medieval Black Metal"(Ютюб) с истеричным визгом вместо вокала.

Не такой уже и примитивный. А в лучшем качестве ни у кого нету?
Moldavite
[ Hidden Text ]
satanist666
Есть на ДаркВорлд'е:
[ Hidden Text ]
Прямая ссылка на Мыло - 113Mb в 320kbps!!!:
[ Hidden Text ]
Added by: CrucifixatioN
metaler.gif
rimfrost
ЦИТАТА(satanist666 @ Apr 6 2019, 13:23:03) *
Есть на ДаркВорлд'е:

Прямая ссылка на Мыло - 113Mb в 320kbps!!!:

Added by: CrucifixatioN
metaler.gif

Хотелось бы тебе уважаемый напомнить одно из правил этого форума , о том , что нельзя тут рекламировать другие ресурсы и ссылки с них , как мне помниться .
satanist666
Не парься, все ссылки скрыты!!!
Лучше русский язык подучи!:
"одно из плавил"
bye.gif bye.gif bye.gif
____________________________
QUOTE(rimfrost @ Apr 6 2019, 16:42:41) *
Хотелось бы тебе уважаемый напомнить одно из плавил этого форума , о том , что нельзя тут рекламировать другие ресурсы и ссылки с них , как мне помниться .

rimfrost
Перезалейте плз на медиаогонь или мегу!
nsk2008
ЦИТАТА(rimfrost @ Oct 5 2023, 10:43:19) *
Перезалейте плз на медиаогонь или мегу!


[ Hidden Text ]
This is a "lo-fi" version of our main content. To view the full version with more information, formatting and images, please click here.
Invision Power Board © 2001-2024 Invision Power Services, Inc.