Help - Search - Members - Calendar
Full Version: Ahamkara - The Embers Of The Stars (2014)
Metal Area - Extreme Music Portal > Releases Area / Релизы > New Releases > Lossless
Samaritianin


*Artist: Ahamkara
*Album: The Embers Of The Stars
*Year: 2014
*Genre: Atmospheric Black Metal
*Country: United Kingdom
*Format: mp3@CBR320kbps
*Size: 112MB

Tracklist:
1. Midwinters Hymn 10:08
2. On The Shores Of Defeat 12:42
3. Lamentation Of A Wraith 10:26
4. To Invoke The Stars Themselves 14:19
******************************
Total playing time: 47:35



Technical info

Input File: 02. Ahamkara - On the Shores of Defeat.mp3
Channels : 2
Sample Rate : 44100
Precision : 16-bit
Duration : 00:12:41.75 = 33593263 samples = 57131.4 CDDA sectors
File Size : 30.5M
Bit Rate : 321k
Sample Encoding: MPEG audio (layer I, II or III)
Comments :
Title=On the Shores of Defeat
Artist=Ahamkara
Album=The Embers of the Stars (Digipak)
Tracknumber=2
Year=2015



[ Hidden Text ]
Ostinato
Awesome! Thank you.

However, they're from the UK, not Sweden. (Newcastle-upon-Tyne to be specific)
Samaritianin
[ Hidden Text ]

[ Hidden Text ]
KVRT

Baalslayer
An225
Wonderful for chilling!
Great Band!
Jacktheripper666
Очень крутой альбом, особенно последний трек
snorr
Перезалейте плиз, на другой обменник.
orloff2000
Thank you very much, but unfortunately the links are no longer available 6.gif
Can anyone help?
Borderline1991
[ Hidden Text ][ Hidden Text ]
This is a "lo-fi" version of our main content. To view the full version with more information, formatting and images, please click here.
Invision Power Board © 2001-2021 Invision Power Services, Inc.