Help - Search - Members - Calendar
Full Version: Blood Work - War For Blood (2013)
Metal Area - Extreme Music Portal > Releases Area / Релизы > Archive
Gelukas


*Artist: Blood Work
*Album: War For Blood
*Year: 2013
*Genre: Death Metal
*Country: Venezuela
*Format: mp3@CBR320kbps
*Size: 56MB

Tracklist:
1. War for Blood 02:59
2. Bloody Minutes 03:22
3. World Destruction 02:37
4. Messenger of Destruction 03:27
5. Raining Blood (Slayer cover) 04:14
6. Into the Bloodwork 04:21
7. No Hope No Chance 03:20
******************************
Total playing time: 24:20




Technical info

Input File: 2. Bloody Minutes.mp3
Channels : 2
Sample Rate : 44100
Precision : 16-bit
Duration : 00:03:22.50 = 8930294 samples = 15187.6 CDDA sectors
File Size : 8.10M
Bit Rate : 320k
Sample Encoding: MPEG audio (layer I, II or III)
Comments :
Artist=Blood Work
Album=War For Blood
Year=2013
Genre=9



[ Hidden Text ]
donnieyen
Dead link
This is a "lo-fi" version of our main content. To view the full version with more information, formatting and images, please click here.
Invision Power Board © 2001-2022 Invision Power Services, Inc.