Help - Search - Members - Calendar
Full Version: Mutilated - In Memoriam [best of/compilation] (2013)
Metal Area - Extreme Music Portal > Releases Area / Релизы > New Releases > Lossless
Redesecretor


*Artist: Mutilated
*Album: In Memoriam [best of/compilation]
*Year: 2013
*Genre: Death Metal
*Country: France
*Format: mp3@CBR320kbps
*Size: 189MB

Tracklist:
Disc 1 (12" 33⅓ RPM)
Side A
1. Cabalistic Cryptograms 03:40
2. Disincarnate Souls 02:00
3. Funeral Slumber 07:29
4. Tormented Creation 02:27
5. Al-Azif 02:32
Side B
6. Sorcery 04:45
7. Graves of Rebirth 04:30
8. Millenium Altar 03:22
9. Evil Scriptures 04:18
10. Evil Scriptures (live) 04:25

Disc 2 (12" 33⅓ RPM)
Side A
1. Intro 00:35
2. Tormented Creation 02:40
3. Sorcery 04:55
4. Millenium Altar 04:59
5. The Crown of Death 04:25
6. Funeral Slumber 07:01
Side B
7. Evil Scriptures 04:30
8. Graves of Rebirth 03:44
9. Tormented Creation 02:53
10. The Crown of Death 03:55
11. Evil Scriptures 04:13
******************************
Total playing time: 1:23:18

Extended info
2LP

Live and rehearsal recordings 1988-1993


Technical info

Input File: A2. Disincarnate Souls (Funeral Side).mp3
Channels : 2
Sample Rate : 44100
Precision : 16-bit
Duration : 00:02:00.88 = 5330940 samples = 9066.22 CDDA sectors
File Size : 4.84M
Bit Rate : 320k
Sample Encoding: MPEG audio (layer I, II or III)
Comments :
Title=Disincarnate Souls (Funeral Side)
Artist=Mutilated
Album=In Memoriam
Tracknumber=02/21
Year=2013
Genre=Death Metal



[ Hidden Text ]
frostdomain
[Double CD Edition] (2017) 320
[ Hidden Text ]
themortician
2CD Edition FLAC from the web:

[ Hidden Text ]
This is a "lo-fi" version of our main content. To view the full version with more information, formatting and images, please click here.
Invision Power Board © 2001-2021 Invision Power Services, Inc.