Help - Search - Members - Calendar
Full Version: Dead Man's Chest - Negative Mental Attitude [ep] (2014)
Metal Area - Extreme Music Portal > Releases Area / Релизы > New Releases > Lossless
slack


*Artist: Dead Man's Chest
*Album: Negative Mental Attitude [ep]
*Year: 2014
*Genre: Thrash Metal/Hardcore
*Country: United Kingdom
*Format: mp3@CBR320kbps
*Size: 66MB

Tracklist:
01. Hateline 06:05
02. Kiss the Ground 05:50
03. Weight of Disrespect 05:33
04. Left Alone 05:10
05. Bringing It Back 04:42
******************************
Total playing time: 27:20



Technical info

Input File: 02 Kiss the Ground.mp3
Channels : 2
Sample Rate : 44100
Precision : 16-bit
Duration : 00:05:50.49 = 15456477 samples = 26286.5 CDDA sectors
File Size : 14.7M
Bit Rate : 335k
Sample Encoding: MPEG audio (layer I, II or III)
Comments :
Title=Kiss the Ground
Artist=Dead Man'S Chest
Album=Negative Mental Attitude
Tracknumber=2
Year=2014
Genre=Thrash Metal / Hardcore



[ Hidden Text ]
orloff2000
Thank you very much, but unfortunately the link is no longer available 6.gif
Can anyone help?
Borderline1991
[ Hidden Text ]
[ Hidden Text ]
This is a "lo-fi" version of our main content. To view the full version with more information, formatting and images, please click here.
Invision Power Board © 2001-2021 Invision Power Services, Inc.