Help - Search - Members - Calendar
Full Version: Blind Legion - The Lost Tapes [best of/compilation] (2008)
Metal Area - Extreme Music Portal > Releases Area / Релизы > Archive
Proteus_666


*Artist: Blind Legion
*Album: The Lost Tapes [best of/compilation]
*Year: 2008
*Genre: Heavy Metal
*Country: United States
*Format: mp3@CBR320kbps
*Size: 104MB

Tracklist:
1. Much Too Fast 03:23
2. What I Got 03:26
3. Darkness Falls 06:03
4. Living A Nightmare 04:26
5. Blessed In The Night 04:33
6. Fires In Your Cities 04:36
7. Necromancer 07:02
8. Der Totentanz 03:43
9. In Peace 05:29
10. Nice Guys Finish Last 03:12
11. Used To Be Blind 05:17
12. Blitzkrieg 04:29
******************************
Total playing time: 55:39

Extended info
This was band from Albany, New York (started as Blitzkrieg and Legion (later)).
Compilation released by Blood & Iron Records consist of:
tracks 1-4 recorded summer of 1985.
tracks 5-9 recorded summer of 1986.
tracks 10-11 from the 7" single May 1984.
track 12 December 1983.


Technical info

Input File: 01-Much Too Fast.mp3
Channels : 2
Sample Rate : 44100
Precision : 16-bit
Duration : 00:03:23.76 = 8985684 samples = 15281.8 CDDA sectors
File Size : 8.16M
Bit Rate : 320k
Sample Encoding: MPEG audio (layer I, II or III)
Comments :
Title=Much Too Fast
Artist=Blind Legion (USA, NY)
Album=The Lost Tapes
Tracknumber=01
Year=2008
Genre=Heavy Metal



[ Hidden Text ]
Mauriciosatan
Reup please
Mauriciosatan
Reup please pray.gif
dimcho0
CBR320kbps
[ Hidden Text ]
This is a "lo-fi" version of our main content. To view the full version with more information, formatting and images, please click here.
Invision Power Board © 2001-2021 Invision Power Services, Inc.