Help - Search - Members - Calendar
Full Version: Terrana - Terrana (2014)
Metal Area - Extreme Music Portal > Releases Area / Релизы > New Releases > Unformat R:
cesar


*Artist: Terrana
*Album: Terrana
*Year: 2014
*Genre: Hard Rock
*Country: United States
*Format: mp3@CBR320kbps
*Size: 110MB

Tracklist:
01. Hang Tough
02. Liquid Dynamite
03. Hold On
04. Let It All Go
05. It's Over Now
06. Hell On High Heels
07. Around The World
08. Show Down
09. Mississippi Queen
10. One Way
11. Shake Me
12. Ridin' The Rails
******************************
Total playing time: 48:07



Extended info
Простой и "мягковатый" хард рок от виртуозного и мизантропического Майка.


Technical info

Input File: 06 - Hell On High Heels.mp3
Channels : 2
Sample Rate : 44100
Precision : 16-bit
Duration : 00:04:00.27 = 10596039 samples = 18020.5 CDDA sectors
File Size : 9.68M
Bit Rate : 322k
Sample Encoding: MPEG audio (layer I, II or III)
Comments :
Title=Hell On High Heels
Artist=Terrana
Album=Terrana
Tracknumber=06/12
Year=2014
Genre=Hard Rock



[ Hidden Text ]
cesar
В шапке оставили только яПапку hmm.gif
Остальные ссылки убрали. Что, теперь только обязательные там расположены?
Раньше было требование, что одна хотя бы должна быть из списка - остальные любые.

В любом случае заброшу парочку в пост:

[ Hidden Text ]
Tular
Спасибо! В прошлом году купил ЦД и подписал у самого автора, но так до сих пор не рипнул и не послушал)
cesar
ЦИТАТА(Tular @ Apr 6 2015, 21:33:03) *
...но так до сих пор не рипнул и не послушал)

Да ты что? 17.gif
Я бы не выдержал!!
This is a "lo-fi" version of our main content. To view the full version with more information, formatting and images, please click here.
Invision Power Board © 2001-2020 Invision Power Services, Inc.