*Artist: World Of Metal And Rust
*Album: Beauty In Decay
*Year: 2015
*Genre: Ambient/Industrial/Drone
*Country: United States
*Format: mp3@CBR320kbps
*Size: 88MB

Tracklist:
1. Dawn 03:01
2. Funereal 03:43
3. Cacophonic Insanity 03:15
4. Inner Torment Theme 03:27
5. Beauty in Decay 03:25
6. Scorn 03:05
7. Mechanized Agony 03:15
8. Broken Dreams 02:48
9. Electrical Dissonance 03:15
10. Ghetto Noir 03:43
11. Dread 03:16
12. Tortured Echoes of the Mind 02:55
13. Metallic Wasteland 04:52
14. Dusk 02:27
******************************
Total playing time: 46:27

Extended info


Technical info

Input File: World of Metal and Rust - Beauty in Decay - 01 Dawn.mp3
Channels : 2
Sample Rate : 44100
Precision : 16-bit
Duration : 00:03:01.89 = 8021349 samples = 13641.7 CDDA sectors
File Size : 6.37M
Bit Rate : 280k
Sample Encoding: MPEG audio (layer I, II or III)
Comments :
Title=Dawn
Artist=World of Metal and Rust
Album=Beauty in Decay
Tracknumber=1
Year=2015



[ Hidden Text ]