*Artist: Sol
*Album: Where Suns Come To Die
*Year: 2015
*Genre: Ambient
*Country: Denmark
*Format: mp3@CBR320kbps
*Size: 83MB

Tracklist:
1. This Bitter Earth 8:18
2. I Surrender To The Soil 10:02
3. Hymn 4:48
4. The Grinding Wheels Of Time 13:10
******************************
Total playing time: 36:18



Extended info
Стихи под эмбиент и сэмплы классики со старых пластинок. Еще дальше от метала чем Offer Thy Flesh To The Worms


Technical info

Input File: 03-Hymn.mp3
Channels : 2
Sample Rate : 44100
Precision : 16-bit
Duration : 00:04:50.65 = 12817797 samples = 21799 CDDA sectors
File Size : 11.6M
Bit Rate : 320k
Sample Encoding: MPEG audio (layer I, II or III)
Comments :
Title=Hymn
Artist=Sol
Album=Where Suns Come To Die
Tracknumber=3/4
Year=2015
Genre=Ambient



[ Hidden Text ]