Help - Search - Members - Calendar
Full Version: The Everscathed - Scars To Bare (2015)
Metal Area - Extreme Music Portal > Releases Area / Релизы > New Releases > Lossless
Samaritianin


*Artist: The Everscathed
*Album: Scars To Bare
*Year: 2015
*Genre: Death Metal
*Country: United States
*Format: mp3@CBR320kbps
*Size: 93MB

Tracklist:
01. Becoming The Executioner
02. Hammers At Dawn
03. The Opposite Reflection
04. Maim The Wandering
05. Bear The Scars
06. Cursing My Name
07. Wave Of Disaster
08. Where I Lie
******************************
Total playing time: 40:45



Technical info

Input File: 02. Hammers At Dawn.mp3
Channels : 2
Sample Rate : 44100
Precision : 16-bit
Duration : 00:04:54.69 = 12995917 samples = 22101.9 CDDA sectors
File Size : 11.9M
Bit Rate : 324k
Sample Encoding: MPEG audio (layer I, II or III)
Comments :
Title=Hammers At Dawn
Artist=The Everscathed
Album=Scars to Bare
Tracknumber=2/8
Year=2015



[ Hidden Text ]
Genuine Thrashiac
dm666




Format: mp3@320kbps (Lame 3.93.1)
[ Hidden Text ]
Lossless: FLAC (tracks)
[ Hidden Text ]
This is a "lo-fi" version of our main content. To view the full version with more information, formatting and images, please click here.
Invision Power Board © 2001-2021 Invision Power Services, Inc.