Help - Search - Members - Calendar
Full Version: Solinaris - Deranged [ep] (2015)
Metal Area - Extreme Music Portal > Releases Area / Релизы > Archive
aesteticvice


*Artist: Solinaris
*Album: Deranged [ep]
*Year: 2015
*Genre: Avant-Garde/Progressive Technical Death Metal
*Country: Canada
*Format: mp3@CBR320kbps
*Size: 43MB

Tracklist:
1. Deranged 05:20
2. Phobopath 05:35
3. Field Of Trees 06:28
******************************
Total playing time: 17:23



Extended info
Eric Labrie: Vocals - Keys
Bernard Giroux - All acoustic guitars
Jean-Daniel Villeneuve - All electric, solos and electric clean guitar parts
Jonathan Piché: Bass
Lucas Biron - Drum

Guest musician: Alexandra Lacasse - Sax


Technical info

Input File: Solinaris - Deranged - 01 Deranged.mp3
Channels : 2
Sample Rate : 44100
Precision : 16-bit
Duration : 00:05:20.84 = 14149000 samples = 24062.9 CDDA sectors
File Size : 13.1M
Bit Rate : 326k
Sample Encoding: MPEG audio (layer I, II or III)
Comments :
Title=Deranged
Artist=Solinaris
Album=Deranged
Tracknumber=1
Year=2015



[ Hidden Text ]
edzkar
xAtiLLAx
хорошо
aesteticvice
я бы сказал нехилая такая новая звезда на Канадском прог техникал дэт Олимпе, вернее очень качественная свежая кровь
Язва
Последний трэк Field Of Trees с чистым (женским?) вокалом и жирным басом чудо как хорош (9/10), а первые два тянут конечно на определение "очень качественная свежая кровь", но не более того (7/10).
Язва
Все три вещи вошли в одноименный лонгплей Solinaris - Deranged (2016)
This is a "lo-fi" version of our main content. To view the full version with more information, formatting and images, please click here.
Invision Power Board © 2001-2020 Invision Power Services, Inc.