Help - Search - Members - Calendar
Full Version: The 135 - Lumen Per Lumen [ep] (2015)
Metal Area - Extreme Music Portal > Releases Area / Релизы > Archive
Jacktheripper666


*Artist: The 135
*Album: Lumen Per Lumen [ep]
*Year: 2015
*Genre: Black Metal
*Country: France
*Format: mp3@CBR320kbps
*Size: 44MB

Tracklist:
1. Drakon Manifesto / Death of The I 07:05
2. We Are Legion 05:08
3. Draconis Scientia 07:12
******************************
Total playing time: 19:25



Extended info


Technical info

Input File: 01. Drakon Manifesto - Death Of The I.mp3
Channels : 2
Sample Rate : 44100
Precision : 16-bit
Duration : 00:07:07.80 = 18865892 samples = 32084.9 CDDA sectors
File Size : 17.3M
Bit Rate : 324k
Sample Encoding: MPEG audio (layer I, II or III)
Comments :
Title=Drakon Manifesto - Death Of The I
Artist=The 135
Album=Lumen Per Lumen
Tracknumber=1
Year=2015
Genre=Black Metal



[ Hidden Text ]
deadterror
Хорошая банда!
RUSP73
Особенно вторая вещица ..прям обслушался! metaler.gif
wendigo
Could someone reupload please?
Абигор
Reuploaded.
[ Hidden Text ]
This is a "lo-fi" version of our main content. To view the full version with more information, formatting and images, please click here.
Invision Power Board © 2001-2023 Invision Power Services, Inc.