*Artist: Adrian Von Ziegler
*Album: Mortualia
*Year: 2012
*Genre: Darkwave/Neoclassical/Celtic
*Country: Switzerland
*Format: mp3@CBR320kbps
*Size: 182MB

Tracklist:
01. Sacrament Of Tears
02. Curse Upon The Living
03. Ad Mortem
04. Midnight Dancers
05. Forevermore
06. Sonata
07. Black Dawn
08. Cantus Maeroris
09. Forlorn Hearts
10. Let Me Fade
11. Entwined Hearts
12. Sepulcrum Floris
13. Even In Death
14. Innocence
******************************
Total playing time: 1:18:21



Technical info

Input File: 07. Black Dawn.mp3
Channels : 2
Sample Rate : 44100
Precision : 16-bit
Duration : 00:04:07.09 = 10896757 samples = 18531.9 CDDA sectors
File Size : 9.93M
Bit Rate : 322k
Sample Encoding: MPEG audio (layer I, II or III)
Comments :
Title=Black Dawn
Artist=Adrian Von Ziegler
Album=Mortualia
Tracknumber=7
Year=2012
Genre=Darkwave/Neoclassical/Celtic



[ Hidden Text ]