Help - Search - Members - Calendar
Full Version: Harvest The Infection - Reassortment [ep] (2015)
Metal Area - Extreme Music Portal > Releases Area / Релизы > Archive
aesteticvice


*Artist: Harvest The Infection
*Album: Reassortment [ep]
*Year: 2015
*Genre: Progressive/Technical Death Metal
*Country: Canada
*Format: mp3@CBR320kbps
*Size: 38MB

Tracklist:
1. Hard to Kill 04:09
2. Obsidian 05:17
3. Reassortment 00:56
4. Remnants 04:41
******************************
Total playing time: 15:03




Extended info
Круты пасаны, жесткие и интересные.
Influence: Gorod, Necrophagist, The Faceless, Revocation, Decapitated...

Chris Thorpe - Vocals
Jared Smith - Guitars (Civil Ruin)
Kyle Wagner - Guitars (Civil Ruin, ex-Gordred)
Paul Drummond - Drums (Civil Ruin, ex-Gordred)
James Butler-Grey - Bass


Technical info

Input File: Harvest the Infection - Reassortment - 01 Hard to Kill.mp3
Channels : 2
Sample Rate : 44100
Precision : 16-bit
Duration : 00:04:09.70 = 11011946 samples = 18727.8 CDDA sectors
File Size : 10.2M
Bit Rate : 328k
Sample Encoding: MPEG audio (layer I, II or III)
Comments :
Title=Hard to Kill
Artist=Harvest the Infection
Album=Reassortment
Tracknumber=1
Year=2015



[ Hidden Text ]
aserius
Напорище . Механика низших .Необычная подача вокала для техникала .. Свежая струя.
realexxx75
Пожалуй заберу, вот бы ещё запись покачественнее ...
Язва
Скоростной шквал с первой ноты. Продолжатели дела Brain Drill? Нет, уже в первом же трэке канадцы не держат этот убийственный темп и быстро сдуваются.
И по итогам всех 15 минут не более 7-8/10.
ddx1
ЦИТАТА(Язва @ 13th August 2015 - 16:03:52) *
Продолжатели дела Brain Drill?
Ага, кому интересно с этим пластмассовым днищем тягаться. От превью заторчал и уполз в уголок.
Язва
Начало Hard to Kill очень многообещающее, но потом 21.gif
ddx1
ЦИТАТА(Язва @ 13th August 2015 - 17:20:46) *
но потом 21.gif
Т.е. «некрофагистовская» соляра тебе не вкатила?
aesteticvice
ЦИТАТА(Язва @ Aug 13 2015, 14:20:46) *
Начало Hard to Kill очень многообещающее, но потом 21.gif

А по мне так потом как раз самое вкусное и пошло smile1.gif
Язва
ЦИТАТА(ddx1 @ Aug 13 2015, 17:31:44) *
Т.е. «некрофагистовская» соляра тебе не вкатила?

во втором трэке слабенькая
This is a "lo-fi" version of our main content. To view the full version with more information, formatting and images, please click here.
Invision Power Board © 2001-2020 Invision Power Services, Inc.