Help - Search - Members - Calendar
Full Version: Judas Avenger - Judas Avenger (2015)
Metal Area - Extreme Music Portal > Releases Area / Релизы > Archive
Lion


*Artist: Judas Avenger
*Album: Judas Avenger
*Year: 2015
*Genre: Heavy Metal
*Country: Finland
*Format: mp3@CBR320kbps
*Size: 73MB

Tracklist:
1. Judas Avenger 05:35
2. Hell Nation 04:28
3. Empire of Dust 05:22
4. Dying Wish 04:15
5. Night of the Banshee 05:47
6. Divine Darkness 06:17
******************************
Total playing time: 31:44

Technical info

Input File: 01 Judas Avenger.mp3
Channels : 2
Sample Rate : 44100
Precision : 16-bit
Duration : 00:05:36.13 = 14823157 samples = 25209.5 CDDA sectors
File Size : 13.5M
Bit Rate : 320k
Sample Encoding: MPEG audio (layer I, II or III)
Comments :
Title=Judas Avenger
Artist=Judas Avenger
Album=Judas Avenger [EP]
Tracknumber=01/06
Year=2015
Genre=Metal
Discnumber=1/1



[ Hidden Text ]
+ ATheisT +
Вторично и пресно.
https://www.youtube.com/watch?v=ilfE5OXVHW0
AHBAnep
Скорее, третично. Зачем вообще - непонятно.
slack
Это пародия на позднего Хетфилда,
ну по вокалу естественно... 15.gif
vosmidesijatye
А мне всё понравилось - да, влияние Хэтфилда чувствуется, но сделано всё с душой и грамотно. Очень понравилась атмосфера данного альбома - мрачная и таинственная, необычная. В общем, рекомендации. Материал драйвовый и убойный.
This is a "lo-fi" version of our main content. To view the full version with more information, formatting and images, please click here.
Invision Power Board © 2001-2024 Invision Power Services, Inc.