Help - Search - Members - Calendar
Full Version: Lychgate - An Antidote For The Glass Pill (2015)
Metal Area - Extreme Music Portal > Releases Area / Релизы > Archive
necroscum


*Artist: Lychgate
*Album: An Antidote For The Glass Pill
*Year: 2015
*Genre: Avant-garde Black Metal
*Country: United Kingdom
*Format: mp3@CBR320kbps
*Size: 118MB

Tracklist:
1. Unto My Tempest
2. Davamesque B2
3. I Am Contempt
4. A Principle On Seclusion
5. Letter XIX
6. Deus Te Videt
7. The Illness Named Imagination
8. An Acousmatic Guardian
9. My Fate To Burn Forever
10. The Pinnacle Known To Sisyphus
******************************
Total playing time: 49:52




Technical info

Input File: Lychgate - An Antidote for the Glass Pill - 06 Deus Te Videt.mp3
Channels : 2
Sample Rate : 44100
Precision : 16-bit
Duration : 00:04:06.41 = 10866681 samples = 18480.8 CDDA sectors
File Size : 10.1M
Bit Rate : 328k
Sample Encoding: MPEG audio (layer I, II or III)
Comments :
Title=Deus Te Videt
Artist=Lychgate
Album=An Antidote for the Glass Pill
Tracknumber=6
Year=2015



[ Hidden Text ]
Абигор
Зеркало -
[ Hidden Text ]
judaz
С авангардом перебрали, имхо.
aesteticvice
free download во всех форматах

acerbus
Долго не мог решить, как относиться к этому альбому. Бывает так, что сразу понятно: это чушь (по разным причинам). Бывает странное ощущение чего-то мутного (часто такие работы уже на втором прослушивании раскрываются для тебя во всём своём великолепии). А бывает как здесь: ерундой уж точно не кажется, "считывается" вроде ясно и сразу. НО, не вызывает никаких эмоций. С предыдущей работой такого не было, принял её сразу.
После нескольких прослушиваний всё-таки склонен сказать альбому "да". И общее настроение импонирует, и в мелкие детали порой приятно вслушиваться. Попривык, короче.
Nemez
Что же они натворили-то?!
Лучше прошлый переслушаю.
Kub
да как были ничем - им и остались
тоже мне блэкмитол корифеи,бгг
Chasm
Да, это не релиз пятницы и даже не альбом сентября.
К "Lychgate - An Antidote For The Glass Pill" надо привыкнуть. Для него нужно особое настроение. Это не фаст-фуд.
Такие произведения существуют вне времени и вне трендов (если я не прав то покажите близкие аналоги), поэтому не все адепты поймут (да я и сам не до конца понимаю).
Вряд ли Грэг пытался выглядеть "блэкмитол корифеем". Скорее использовал блэк для собственного самовыражения. И по мне получилось поинтереснее и уж точно самобытнее большинства корифеев, хотя и сравнивать неуместно..
Evgundel
320:[ Hidden Text ]
FLAC (tracks):[ Hidden Text ]
Metalass
Да, этот альбом - это просто нечто. Каждый раз слушая его открываю для себя новые грани. Он совсем не такой прямолинейный как предшественник, но и не такой накуренный, как последующий, но ломаный и разнообразный именно настолько, насколько нужно, чтобы стать шедевром. Имхо лучшая их работа, и в целом, выше всяческих похвал.
This is a "lo-fi" version of our main content. To view the full version with more information, formatting and images, please click here.
Invision Power Board © 2001-2021 Invision Power Services, Inc.