Help - Search - Members - Calendar
Full Version: Mushroom Lake - Live At Regional Theatre (2014)
Metal Area - Extreme Music Portal > Releases Area / Релизы > New Releases > Unformat R:
Evgundel


*Artist: Mushroom Lake
*Album: Live At Regional Theatre
*Year: 2014
*Genre: Psychedelic/Post-Rock
*Country: India
*Format: mp3@CBR320kbps
*Size: 101MB

Tracklist:
1. 6 AM 05:26
2. Acid Rain 11:27
3. In A Blue Moon 04:32
4. Cloud 7 05:22
5. Rorschach (Part I & III) 07:30
6. Silence And The Mist 09:10
******************************
Total playing time: 43:29







Extended info
Live at Regional Theatre is the debut album of the band which was recorded live during the concert in 2013

Raju KP - guitars/voices
Jitin David - guitars
Vijay Gopal - bass/keys/voices
Govind Ashok Kumar - drums


Technical info

Input File: 04 Cloud 7 (Live).mp3
Channels : 2
Sample Rate : 44100
Precision : 16-bit
Duration : 00:05:22.09 = 14204301 samples = 24157 CDDA sectors
File Size : 13.2M
Bit Rate : 327k
Sample Encoding: MPEG audio (layer I, II or III)
Comments :
Title=Cloud 7
Artist=Mushroom Lake
Album=Live at Regional Theatre
Tracknumber=4
Year=2014
Genre=Post-Rock



[ Hidden Text ]
Evgundel
new links (320):[ Hidden Text ]
This is a "lo-fi" version of our main content. To view the full version with more information, formatting and images, please click here.
Invision Power Board © 2001-2019 Invision Power Services, Inc.