*Artist: The Mars Volta
*Album: Noctourniquet
*Year: 2012
*Genre: Progressive/Psychedelic Rock
*Country: United States
*Format: mp3@CBR320kbps
*Size: 148MB

Tracklist:
1. The Whip Hand 04:54
2. Aegis 05:11
3. Dyslexicon 04:26
4. Empty Vessels Make The Loudest Sound 06:54
5. The Malkin Jewel 04:43
6. Lapochka 04:14
7. In Absentia 07:31
8. Imago 03:58
9. Molochwalker 03:33
10. Trinkets Pale Of Moon 04:27
11. Vedamalady 03:58
12. Noctourniquet 05:39
13. Zed And The Two Naughts 05:37
******************************
Total playing time: 1:05:05



Extended info
vynil rip
Omar Rodríguez-López – guitar, keyboards, synths, bass, direction, arrangements
Cedric Bixler-Zavala – vocals, lyrics
Juan Alderete – bass guitar
Deantoni Parks – drums
Marcel Rodríguez-López (though credited, did not play on the album)


Technical info

Input File: A1. The Whip Hand.mp3
Channels : 2
Sample Rate : 44100
Precision : 16-bit
Duration : 00:04:53.39 = 12938279 samples = 22003.9 CDDA sectors
File Size : 11.8M
Bit Rate : 322k
Sample Encoding: MPEG audio (layer I, II or III)
Comments :
Title=The Whip Hand
Artist=The Mars Volta
Album=Noctourniquet (2LP) [Rodriguez Lopez Productions, RLP025]
Tracknumber=01
Year=2012
Genre=Psychedelic Rock/Progresive Rock



[ Hidden Text ]