Help - Search - Members - Calendar
Full Version: Besatt - Impia Symphonia [ep] (2015)
Metal Area - Extreme Music Portal > Releases Area / Релизы > New Releases > Lossless
aesteticvice


*Artist: Besatt
*Album: Impia Symphonia [ep]
*Year: 2015
*Genre: Black Metal
*Country: Poland
*Format: mp3@CBR320kbps
*Size: 70MB

Tracklist:
1. Czas Wilka 07:25
2. Bałwochwalstwo 05:00
3. Krew Moich Wrogów 04:46
4. Samobójczy Rytuał 04:27
5. Stworzony Z Błyskawicy 09:51
******************************
Total playing time: 31:29



Extended info
Крутая штука... архаично-симфонично-эпично и так далее.

Beldaroh - Vocals, Bass (1991-present)
See also: Det Gamle Besatt, Mystes, Hellish
Astaroth - Guitars (2011-present)
See also: Deprived, Suffering
Exernus - Drums (2012-present)
See also: ex-Deprived, ex-Suffering
Colossus - Guitars (2012-present)


Technical info

Input File: 02-besatt-baa_wochwalstwo-bedd9530.mp3
Channels : 2
Sample Rate : 44100
Precision : 16-bit
Duration : 00:04:58.19 = 13150267 samples = 22364.4 CDDA sectors
File Size : 11.9M
Bit Rate : 320k
Sample Encoding: MPEG audio (layer I, II or III)
Comments :
Title=Bałwochwalstwo
Artist=Besatt
Album=Impia Symphonia
Tracknumber=2/5
Year=2015
Genre=17



[ Hidden Text ]
Lion
[ Hidden Text ]
Chasm
Я человек простой. Вижу сиськи - ставлю лайк.
aesteticvice
ЦИТАТА(Chasm @ Sep 19 2015, 13:59:07) *
Я человек простой. Вижу сиськи - ставлю лайк.

слава сиськам!
cesar
ЦИТАТА(aesteticvice @ Sep 19 2015, 18:08:21) *
слава сиськам!

тут точно!!
Sangre
ЦИТАТА(Chasm @ Sep 19 2015, 23:59:07) *
Я человек простой. Вижу сиськи - ставлю лайк.

Самая правильная религия. 1488.gif
aesteticvice
ЦИТАТА(Sangre @ Sep 19 2015, 14:30:40) *
Самая правильная религия. 1488.gif

а там такой простор для нюансов pray.gif
sethurius
Не люблю гнать зазря , но Бесатт после Triumph Of Antichrist -ненавижу. В какую шляпу они превратились, боже мой.
Ps
Когда на обложке есть подобное дерьмо - эта группа конченная.
Corpse_Of_The_Christ
оформление редкостное 22.gif
Kub
сиськи, скрипка и смычок
очень много смысла
оформитель - дурачок
в жoпе коромысло
asog
Разве это сиськи - это сисяндры. Хоть тему в курилке создавай о теме сисек в оформлении альбомов...
По музыке - уныленько, были у них и интереснее релизы
BrutalMan
25.gif Amazing EP!!!
ShmiT
Flac Rip mp3*320kbps (EAC+lame 3.93.1+scans)-115Mb
[ Hidden Text ]
TUCO PACIFICO[BFM] thanks for the Flac
wojak
Could be able to post it again? true_black.gif
Borderline1991
[ Hidden Text ][ Hidden Text ]
This is a "lo-fi" version of our main content. To view the full version with more information, formatting and images, please click here.
Invision Power Board © 2001-2021 Invision Power Services, Inc.