Help - Search - Members - Calendar
Full Version: Beaten To Death - Unplugged (2015)
Metal Area - Extreme Music Portal > Releases Area / Релизы > Archive
necroscum


*Artist: Beaten To Death
*Album: Unplugged
*Year: 2015
*Genre: Death Metal/Grindcore
*Country: Norway
*Format: mp3@CBR320kbps
*Size: 62MB

Tracklist:
01. Papyrus Containing The Spell To Summon The Breath Of Life Enshrined In The Collected Scrolls Of Sheryl Crow
02. I Keep Stalling
03. Home Of Phobia
04. Til Himmels (For A Gjete Gud)
05. Menstrubation
06. Don't You Dare To Call Us Heavy Metal
07. Promise Catharsis
08. Greenway/Harris
09. End Of An Error
10. Death To False Grindcore
11. Robert Sylvester Kelly
12. Knulleviser For Barn
13. Troll
******************************
Total playing time: 20:58




Technical info

Input File: 06. Don\\\'t You Dare To Call Us Heavy Metal.mp3
Channels : 2
Sample Rate : 44100
Precision : 16-bit
Duration : 00:01:34.55 = 4169611 samples = 7091.18 CDDA sectors
File Size : 4.52M
Bit Rate : 382k
Sample Encoding: MPEG audio (layer I, II or III)
Comments :
Title=Don't You Dare To Call Us Heavy Metal
Artist=Beaten To Death
Album=Unplugged
Tracknumber=06/13
Year=2015



[ Hidden Text ]
kimkayoung
The album (320 kbps, FLAC, etc) is currently downloadable free on 'name your price' basis on their BandCamp page:
This is a "lo-fi" version of our main content. To view the full version with more information, formatting and images, please click here.
Invision Power Board © 2001-2023 Invision Power Services, Inc.