Help - Search - Members - Calendar
Full Version: Monster Magnet - Cobras And Fire (The Mastermind Redux) (2015)
Metal Area - Extreme Music Portal > Releases Area / Релизы > New Releases > Unformat R:
Tular


*Artist: Monster Magnet
*Album: Cobras And Fire (The Mastermind Redux)
*Year: 2015
*Genre: Stoner Rock
*Country: United States
*Format: mp3@CBR320kbps
*Size: 146MB

Tracklist:
01. She Digs That Hole
02. Watch Me Fade
03. Mastermind '69
04. Cobras And Fire (Hallucination Bomb)
05. Gods, Punks And The Everlasting Twilight
06. The Titan
07. When The Planes Fall From The Sky
08. Ball Of Confusion
09. Time Machine
10. I Live Behind The Paradise Machine Evil Joe Barresi's Magnet Mash Vol.1
******************************
Total playing time: 1:03:52

Technical info

Input File: 02. Watch Me Fade.mp3
Channels : 2
Sample Rate : 44100
Precision : 16-bit
Duration : 00:03:06.25 = 8213493 samples = 13968.5 CDDA sectors
File Size : 7.52M
Bit Rate : 323k
Sample Encoding: MPEG audio (layer I, II or III)
Comments :
Title=Watch Me Fade
Artist=Monster Magnet
Album=Cobras and Fire (the Mastermind Redux)
Tracknumber=2/10
Year=2015
Genre=Stoner Metal



[ Hidden Text ]
killercorpse
Как глоток свежего воздуха, когда кругом в моде южатина 20.gif
vosmidesijatye
23 марта поступит в продажу и новая пластинка от Monster Magnet - Mindfucker.

This is a "lo-fi" version of our main content. To view the full version with more information, formatting and images, please click here.
Invision Power Board © 2001-2019 Invision Power Services, Inc.