Help - Search - Members - Calendar
Full Version: Ruhestätte Schwarz - Dark Wave Sex Zombies (2014)
Metal Area - Extreme Music Portal > Releases Area / Релизы > New Releases > Unformat R:
Lion


*Artist: Ruhestätte Schwarz
*Album: Dark Wave Sex Zombies
*Year: 2014
*Genre: Gothic Metal/Industrial
*Country: Germany
*Format: mp3@CBR320kbps
*Size: 113MB

Tracklist:
1. Doomsday's Calling
2. Nobody Wants To Dance With Me
3. Last Zombie
4. Eiszeit
5. Reanimation
6. Until All Darkness Is Gone
7. Battlefield Of Life
8. Dark Wave Sex Zombies
9. When An Angel Touched My Heart
10. The Devil Is Stoned
11. Dead And Gone
******************************
Total playing time: 49:36



Technical info

Input File: 01. Doomsday\\\'s Calling.mp3
Channels : 2
Sample Rate : 44100
Precision : 16-bit
Duration : 00:04:56.10 = 13058098 samples = 22207.6 CDDA sectors
File Size : 11.8M
Bit Rate : 320k
Sample Encoding: MPEG audio (layer I, II or III)
Comments :
Title=Doomsday's Calling
Artist=Ruhestätte Schwarz
Album=Dark Wave Sex Zombies
Tracknumber=01
Year=2014
Genre=Gothic Metal/Industrial



[ Hidden Text ]
Ludwig Hagen
Awesome 19.gif !! Sounds like "Dance or Die" pray.gif
This is a "lo-fi" version of our main content. To view the full version with more information, formatting and images, please click here.
Invision Power Board © 2001-2020 Invision Power Services, Inc.