Help - Search - Members - Calendar
Full Version: TUNNELxSNAKES - We Are The Tunnel Snakes [demo] (2015)
Metal Area - Extreme Music Portal > Releases Area / Релизы > New Releases > Unformat R:
KINO


*Artist: TUNNELxSNAKES
*Album: We Are The Tunnel Snakes [demo]
*Year: 2015
*Genre: Powerviolence
*Country: France
*Format: mp3@CBR320kbps
*Size: 14MB

Tracklist:
1. We Are The Tunnel Snakes 01:42
2. Vault 106 00:34
3. Deathclaw Attack 00:06
4. Radioactive Beaches 00:47
5. Dogmeat 00:28
6. Wasteland Beatdown 01:22
7. It's Three Dog 00:21
******************************
Total playing time: 5:20

Technical info

Input File: TUNNELxSNAKES - WE ARE THE TUNNEL SNAKES - 01 WE ARE THE TUNNEL SNAKES.mp3
Channels : 1
Sample Rate : 44100
Precision : 16-bit
Duration : 00:01:42.15 = 4504727 samples = 7661.1 CDDA sectors
File Size : 4.19M
Bit Rate : 328k
Sample Encoding: MPEG audio (layer I, II or III)
Comments :
Title=WE ARE THE TUNNEL SNAKES
Artist=TUNNELxSNAKES
Album=WE ARE THE TUNNEL SNAKES
Tracknumber=1
Year=2015



[ Hidden Text ]
Diflock
This is a "lo-fi" version of our main content. To view the full version with more information, formatting and images, please click here.
Invision Power Board © 2001-2020 Invision Power Services, Inc.