*Artist: Покруч
*Album: Сад [single]
*Year: 2015
*Genre: Progressive/Post-Metal/Alternative/Art Rock
*Country: Ukraine
*Format: mp3@CBR320kbps
*Size: 9MB

Tracklist:
1. Сад 04:08
******************************
Total playing time: 4:08

Preview 1



Extended info
ex-ТОЛ

Line-Up:
Евгений Петрусенко - вокал, гитара
Дмитрий Дзюба - бас-гитара
Сергей Любинский - гитара
Юрий Ищенко - барабаны


Technical info

Input File: 01 - Сад.mp3
Channels : 2
Sample Rate : 44100
Precision : 16-bit
Duration : 00:04:08.24 = 10947560 samples = 18618.3 CDDA sectors
File Size : 10.2M
Bit Rate : 330k
Sample Encoding: MPEG audio (layer I, II or III)
Comments :
Title=Сад
Artist=РџРѕРєСЂСѓС‡
Album=Single
Tracknumber=1
Year=2015
Genre=Alternative



[ Hidden Text ]