Help - Search - Members - Calendar
Full Version: El Sonido De Los Árboles - S/T [ep] (2015)
Metal Area - Extreme Music Portal > Releases Area / Релизы > New Releases > Unformat R:
KINO


*Artist: El Sonido De Los Árboles
*Album: S/T [ep]
*Year: 2015
*Genre: Screamo
*Country: Colombia
*Format: mp3@CBR320kbps
*Size: 53MB

Tracklist:
1. Mi Boca Lucha Por Sentir 03:28
2. Si Tus Manos Pudieran Hablar 04:26
3. Tus Ojos Deberían Callar 03:36
4. Ciertas Huellas No Logran Olvidar 03:38
5. Sus Oídos Mueren Por Recordar 03:19
6. Vortex (Bonus Track) 02:53
******************************
Total playing time: 21:20

Technical info

Input File: El Sonido de los ?rboles - El Sonido de los ?rboles EP - 01 Mi Boca Lucha Por Sentir.mp3
Channels : 2
Sample Rate : 44100
Precision : 16-bit
Duration : 00:03:28.32 = 9186868 samples = 15623.9 CDDA sectors
File Size : 8.48M
Bit Rate : 326k
Sample Encoding: MPEG audio (layer I, II or III)
Comments :
Title=Mi Boca Lucha Por Sentir
Artist=El Sonido de los ГЃrboles
Album=El Sonido de los ГЃrboles EP
Tracknumber=1
Year=2015



[ Hidden Text ]
Ostinato
This is a "lo-fi" version of our main content. To view the full version with more information, formatting and images, please click here.
Invision Power Board © 2001-2020 Invision Power Services, Inc.