*Artist: Lowlife
*Album: Error [ep]
*Year: 2015
*Genre: Hardcore/Metal-Punk
*Country: Ukraine
*Format: mp3@CBR320kbps
*Size: 32MB

Tracklist:
1. Error 03:22
2. Totally Not Wrong 01:12
3. Totally Not Wrong pt.2 01:34
4. H.E.H.F. (Half Empty Half Full) 02:22
5. Attack Of The TV-Head 02:36
6. Wecome To The Other Side Of Me 02:51
******************************
Total playing time: 13:57


vk.com

Technical info

Input File: Lowlife - 1 Error.mp3
Channels : 2
Sample Rate : 44100
Precision : 16-bit
Duration : 00:03:22.09 = 8911993 samples = 15156.5 CDDA sectors
File Size : 8.09M
Bit Rate : 320k
Sample Encoding: MPEG audio (layer I, II or III)
Comments :
Title=Error
Artist=Lowlife
Album=Error
Year=2015
Genre=Metalcore Punk



[ Hidden Text ]