*Artist: War Nerves
*Album: Demo [demo]
*Year: 2016
*Genre: Hardcore Punk/D-beat
*Country: United States
*Format: mp3@CBR320kbps
*Size: 6MB

Tracklist:
1. Krux 01:03
2. Faceless 00:52
3. When We Cross 00:42
******************************
Total playing time: 2:37



Technical info

Input File: War Nerves - Demo - 01 Krux.mp3
Channels : 2
Sample Rate : 44100
Precision : 16-bit
Duration : 00:01:03.80 = 2813404 samples = 4784.7 CDDA sectors
File Size : 2.64M
Bit Rate : 332k
Sample Encoding: MPEG audio (layer I, II or III)
Comments :
Title=Krux
Artist=War Nerves
Album=Demo
Tracknumber=1
Year=2016



[ Hidden Text ]