Help - Search - Members - Calendar
Full Version: Wordclock - Self Destruction Themes (2015)
Metal Area - Extreme Music Portal > Releases Area / Релизы > New Releases > Unformat R:
shadow666


*Artist: Wordclock
*Album: Self Destruction Themes
*Year: 2015
*Genre: Dark Ambient/Cinematic
*Country: Portugal
*Format: mp3@CBR320kbps
*Size: 139MB

Tracklist:
1. Here We'll Be Gone 11:15
2. The Fever of Our Waiting 08:14
3. It May Come 04:43
4. When Indecision Strikes 07:14
5. Something More 04:12
6. More Often Than Not 02:35
7. Every Shade 06:40
8. Something Else 05:11
9. 32 Walls 06:16
10. Lack of Language 05:06
******************************
Total playing time: 1:01:26

Technical info

Input File: 10 - Lack Of Language.mp3
Channels : 2
Sample Rate : 44100
Precision : 16-bit
Duration : 00:05:06.66 = 13523574 samples = 22999.3 CDDA sectors
File Size : 12.3M
Bit Rate : 321k
Sample Encoding: MPEG audio (layer I, II or III)
Comments :
Title=Lack Of Language
Artist=Wordclock
Album=Self Destruction Themes
Tracknumber=10
Year=2015
Genre=Dark Ambient



[ Hidden Text ]
Hell_Is_Here
This is a "lo-fi" version of our main content. To view the full version with more information, formatting and images, please click here.
Invision Power Board © 2001-2020 Invision Power Services, Inc.