*Artist: Time To Heal
*Album: Taking Control [ep]
*Year: 2016
*Genre: Hardcore Punk
*Country: Sweden
*Format: mp3@CBR320kbps
*Size: 19MB

Tracklist:
1. Intro 01:16
2. Taking Control 01:03
3. Coming up Short 01:26
4. Hold On 01:32
5. Flatline 02:20
******************************
Total playing time: 7:37



Extended info
female vocal


Technical info

Input File: Time to Heal - Taking Control - 01 Intro.mp3
Channels : 2
Sample Rate : 44100
Precision : 16-bit
Duration : 00:01:16.96 = 3394068 samples = 5772.22 CDDA sectors
File Size : 3.20M
Bit Rate : 333k
Sample Encoding: MPEG audio (layer I, II or III)
Comments :
Title=Intro
Artist=Time to Heal
Album=Taking Control
Tracknumber=1
Year=2016



[ Hidden Text ]