*Artist: Piri Reis
*Album: Demo [demo]
*Year: 2015
*Genre: Emoviolence/Screamo
*Country: Malaysia
*Format: mp3@CBR320kbps
*Size: 20MB

Tracklist:
1. First There Was Ophera, A Masquerade 01:18
2. The Padang Jawa Virgin Vigilante 01:57
3. The Devil's Deed of Donetsk 01:27
4. When Life Hand You Grenade 03:32
******************************
Total playing time: 8:14



Technical info

Input File: Piri Reis - Demo - 01 First There Was Ophera, A Masquerade.mp3
Channels : 2
Sample Rate : 44100
Precision : 16-bit
Duration : 00:01:18.74 = 3472434 samples = 5905.5 CDDA sectors
File Size : 3.26M
Bit Rate : 331k
Sample Encoding: MPEG audio (layer I, II or III)
Comments :
Title=First There Was Ophera, A Masquerade
Artist=Piri Reis
Album=Demo
Tracknumber=1
Year=2015



[ Hidden Text ]