*Artist: Ladrón
*Album: La Fuerza [ep]
*Year: 2016
*Genre: Hardcore Punk
*Country: United States
*Format: mp3@CBR320kbps
*Size: 15MB

Tracklist:
1. Vergüenza del Bandera 01:34
2. No Es Tu Tierra 00:52
3. La Fuerza 01:11
4. Victims of Democracy 00:59
5. Criminal 01:30
******************************
Total playing time: 6:06



Technical info

Input File: Ladr?n - La Fuerza - 01 Verg?enza del Bandera.mp3
Channels : 2
Sample Rate : 44100
Precision : 16-bit
Duration : 00:01:34.44 = 4164848 samples = 7083.07 CDDA sectors
File Size : 3.96M
Bit Rate : 335k
Sample Encoding: MPEG audio (layer I, II or III)
Comments :
Title=VergГјenza del Bandera
Artist=LadrГіn
Album=La Fuerza
Tracknumber=1
Year=2016



[ Hidden Text ]