Help - Search - Members - Calendar
Full Version: Goatcraft - Όλεθρος [ep] (2015)
Metal Area - Extreme Music Portal > Releases Area / Релизы > New Releases > Lossless
Velmi


*Artist: Goatcraft
*Album: Όλεθρος [ep]
*Year: 2015
*Genre: Black/Death Metal
*Country: Slovakia
*Format: mp3@CBR320kbps
*Size: 64MB

Tracklist:
1. Isle of the Dead 02:20
2. Temples of the Underworld 04:52
3. Cataclysmic Monuments 00:42
4. Graveless 01:46
5. Abominations 01:06
6. At the Nightside Dawn 01:43
7. Morbid Call 00:21
8. Deathrite 03:11
9. Chthonic Crevices 00:42
10. Down Below 01:00
11. Invocation of Death 05:10
12. Dreadful Dimensions 00:26
13. Far from Elysian Fields 01:45
******************************
Total playing time: 25:04



Extended info
Great Slovakian stuff. As usually

Fvkk off!!!!


Technical info

Input File: 02. Temples Of Underworld.mp3
Channels : 2
Sample Rate : 44100
Precision : 16-bit
Duration : 00:04:52.11 = 12881831 samples = 21907.9 CDDA sectors
File Size : 12.0M
Bit Rate : 328k
Sample Encoding: MPEG audio (layer I, II or III)
Comments :
Title=Temples Of Underworld
Artist=Goatcraft
Album=ОЊО»ОµОёПЃОїП‚
Tracknumber=02/13
Year=2015
Genre=Black / Death Metal



[ Hidden Text ]
MortSathynr
"Ошибка - Внутренняя ошибка на сервере."

Please re-up using another server!

pray.gif
YDV.SVARTVIND
Same All:

[ Hidden Text ]
luxxul
отличный материал!!!
titorrante
Link Death!
Borderline1991
[ Hidden Text ]
titorrante
320?++ hells!!!
QUOTE(Borderline1991 @ Jun 3 2019, 01:38:24) *

satanist666
GOATCRAFT:


HEXENCAVE Productions:
This is a "lo-fi" version of our main content. To view the full version with more information, formatting and images, please click here.
Invision Power Board © 2001-2021 Invision Power Services, Inc.