Help - Search - Members - Calendar
Full Version: Deville - Make It Belong To Us (2015)
Metal Area - Extreme Music Portal > Releases Area / Релизы > New Releases > Lossless
TheTrooper916


*Artist: Deville
*Album: Make It Belong To Us
*Year: 2015
*Genre: Stoner Rock/Metal
*Country: Sweden
*Format: mp3@CBR320kbps
*Size: 89MB

Tracklist:
1. Make It Belong to Me 03:36
2. Chief 02:28
3. Out of the Black 03:12
4. Mind on Hold 03:36
5. Lever 03:41
6. Drive 03:33
7. Life in Decay 04:11
8. Dying to Feel 04:14
9. Reflecting Surface 04:19
10. What Remains 04:29
******************************
Total playing time: 37:19



Extended info
Deville:
Markus Åkesson: Bass.
Markus Nilsson: Drums.
Andreas Bengtsson: Guitars, Vocals.
Andreas Wulkan: Guitars.


Technical info

Input File: 02 Chief.mp3
Channels : 2
Sample Rate : 44100
Precision : 16-bit
Duration : 00:02:28.97 = 6569445 samples = 11172.5 CDDA sectors
File Size : 6.31M
Bit Rate : 339k
Sample Encoding: MPEG audio (layer I, II or III)
Comments :
Title=Chief
Artist=Deville
Album=Make It Belong To Us
Tracknumber=2
Year=2015
Genre=Stoner Metal/Rock



[ Hidden Text ]
orloff2000
Thank you very much, but unfortunately the link is no longer available 6.gif
Can anyone help?
Borderline1991
[ Hidden Text ][ Hidden Text ]
This is a "lo-fi" version of our main content. To view the full version with more information, formatting and images, please click here.
Invision Power Board © 2001-2021 Invision Power Services, Inc.