Help - Search - Members - Calendar
Full Version: Silent Vice - The Last Breath Of An Innocent Heart (2015)
Metal Area - Extreme Music Portal > Releases Area / Релизы > Archive
Samaritianin


*Artist: Silent Vice
*Album: The Last Breath Of An Innocent Heart
*Year: 2015
*Genre: Death/Doom/Gothic Metal
*Country: Spain
*Format: mp3@CBR320kbps
*Size: 93MB

Tracklist:
1. Protected part I 03:44
2. Protected part II 07:49
3. The Broken 05:39
4. Since the Words Last Days 05:48
5. Waves 04:36
6. The New Flesh 03:25
7. Forgotten Steps 10:10
******************************
Total playing time: 41:11



Technical info

Input File: 03 - The Broken.mp3
Channels : 2
Sample Rate : 44100
Precision : 16-bit
Duration : 00:05:39.05 = 14952237 samples = 25429 CDDA sectors
File Size : 13.6M
Bit Rate : 320k
Sample Encoding: MPEG audio (layer I, II or III)
Comments :
Title=The Broken
Artist=Silent Vice
Album=The Last Breath Of An Innocent Heart
Tracknumber=3
Year=2015
Genre=Metal



[ Hidden Text ]
isvili
Модернятитна. (((
aditus
по превьюшке - шикарно. и какая тут может быть модернятина, если тут не мдм?
Skugge
Any chance to re-up this?
quarantine
can you renew the link
Borderline1991
[ Hidden Text ]
This is a "lo-fi" version of our main content. To view the full version with more information, formatting and images, please click here.
Invision Power Board © 2001-2021 Invision Power Services, Inc.