Help - Search - Members - Calendar
Full Version: Aperco - The Battle (2016)
Metal Area - Extreme Music Portal > Releases Area / Релизы > New Releases > Unformat R:
aesteticvice


*Artist: Aperco
*Album: The Battle
*Year: 2016
*Genre: Psychedelic/Atmospheric Progressive Rock
*Country: Israel
*Format: mp3@CBR320kbps
*Size: 155MB

Tracklist:
01. Intro
02. Focused
03. Another Day To Live
04. A Call For Submission
05. The Battle
06. Euphoria
07. Delirium Befor Lunch
08. Dissonant Sound Within
09. Horizon
10. Awaken
******************************
Total playing time: 1:01:25



Extended info
Некое прекрасное действо на стыке лучшего от Анафемы, Риверсайда и Пинк Флойд...поклонникам коллективов строго рекомендэйшен.
...Pink Floyd's darkened ambience, Mike Oldfield's atmospheric soundscapes and Camel's cheerful melodies.

Tom Maizel - Guitars and vocals
Yuval Raz - Bass
Dor Adar - Drums
Ronen Peled - Keyboards




Technical info

Input File: 02. Focused.mp3
Channels : 2
Sample Rate : 44100
Precision : 16-bit
Duration : 00:02:24.92 = 6390840 samples = 10868.8 CDDA sectors
File Size : 6.36M
Bit Rate : 351k
Sample Encoding: MPEG audio (layer I, II or III)
Comments :
Title=Focused
Artist=Aperco
Album=The Battle
Tracknumber=02/10
Year=2016



[ Hidden Text ]
BlackTroll
Буду расслушивать, спасибо 9.gif По первому впечатлению неплохо, Пинк Флойд так и прёт (в хорошем смысле слова smile1.gif)
nagval
Если Флоид слышаться нашим ушам, то качать незамедлительно, дома послушаю
This is a "lo-fi" version of our main content. To view the full version with more information, formatting and images, please click here.
Invision Power Board © 2001-2019 Invision Power Services, Inc.