*Artist: Mental Violence
*Album: Mental Violence [ep]
*Year: 2016
*Genre: Hardcore Punk
*Country: United States
*Format: mp3@CBR320kbps
*Size: 24MB

Tracklist:
1. Intro 01:31
2. Cease To Exist 01:52
3. MV 02:22
4. Wasted Youth 02:28
5. Corrupt 02:02
******************************
Total playing time: 10:15



Technical info

Input File: Mental Violence - S-T - 01 Intro.mp3
Channels : 2
Sample Rate : 44100
Precision : 16-bit
Duration : 00:01:31.25 = 4024301 samples = 6844.05 CDDA sectors
File Size : 3.77M
Bit Rate : 330k
Sample Encoding: MPEG audio (layer I, II or III)
Comments :
Title=Intro
Artist=Mental Violence
Album=S/T
Tracknumber=1
Year=2016



[ Hidden Text ]