*Artist: Winter Psychedelia
*Album: Winter Psychedelia
*Year: 2008
*Genre: Noise/Raw Improvisation
*Country: Canada
*Format: mp3@CBR320kbps
*Size: 112MB

Tracklist:
01. This World Created Not For Me 44:50
02. En La Mort... 24:48
******************************
Total playing time: 1:09:38

Extended info
+Scans.
Psychedelic raw guitar noise improvisation with cosmic abstract acoustic moments.


Technical info

Input File: 01 - This World Created Not For Me.mp3
Channels : 2
Sample Rate : 44100
Precision : 16-bit
Duration : 00:44:50.45 = 118648977 samples = 201784 CDDA sectors
File Size : 108M
Bit Rate : 320k
Sample Encoding: MPEG audio (layer I, II or III)
Comments :
Title=This World Created Not For Me
Artist=Winter Psychedelia
Album=Winter Psychedelia
Tracknumber=1
Year=2008
Genre=Anti-Music



[ Hidden Text ]