Help - Search - Members - Calendar
Full Version: Ancst - Moloch (2016)
Metal Area - Extreme Music Portal > Releases Area / Релизы > Archive
necroscum


*Artist: Ancst
*Album: Moloch
*Year: 2016
*Genre: Black Metal/Crust
*Country: Germany
*Format: mp3@CBR320kbps
*Size: 97MB

Tracklist:
01. Moloch 03:02
02. Behold Thy Servants 03:54
03. The Skies Of Our Infancy 04:26
04. In Decline 03:39
05. Strife 05:31
06. Devouring Glass 03:19
07. Turning Point 03:38
08. Human Hive 03:24
09. No More Words 02:49
10. Lys 04:33
******************************
Total playing time: 38:15




Technical info

Input File: 02. Behold Thy Servants.mp3
Channels : 2
Sample Rate : 44100
Precision : 16-bit
Duration : 00:03:54.87 = 10357547 samples = 17614.9 CDDA sectors
File Size : 10.1M
Bit Rate : 343k
Sample Encoding: MPEG audio (layer I, II or III)
Comments :
Title=Behold Thy Servants
Artist=Ancst
Album=Moloch
Tracknumber=2/10
Year=2016



[ Hidden Text ]
homelike
как раз сейчас слушаю - очень круто, напоминают местами Fall of Efrafa (и это неплохо).

[ Hidden Text ]
varlam4
[ Hidden Text ] 320
Corpse_Of_The_Christ
Storky
Metalcore crazy.gif ? такой качественный старой австрийской школы.
This is a "lo-fi" version of our main content. To view the full version with more information, formatting and images, please click here.
Invision Power Board © 2001-2021 Invision Power Services, Inc.