*Artist: ACB
*Album: EP [ep]
*Year: 2016
*Genre: Hardcore Punk
*Country: Brazil
*Format: mp3@CBR320kbps
*Size: 20MB

Tracklist:
1. Não Religião 01:43
2. Voz Oprimida 01:58
3. Somos Milhões 02:15
4. Eu Não Vou 02:35
******************************
Total playing time: 8:31



Technical info

Input File: ACB - EP 2016 - 01 N?o Religi?o.mp3
Channels : 2
Sample Rate : 44100
Precision : 16-bit
Duration : 00:01:43.53 = 4565761 samples = 7764.9 CDDA sectors
File Size : 4.21M
Bit Rate : 325k
Sample Encoding: MPEG audio (layer I, II or III)
Comments :
Title=NГЈo ReligiГЈo
Artist=ACB
Album=EP 2016
Tracknumber=1
Year=2016



[ Hidden Text ]