*Artist: Victims
*Album: Sirens
*Year: 2016
*Genre: Crust/D-beat
*Country: Sweden
*Format: mp3@CBR320kbps
*Size: 89MB

Tracklist:
1. Walls 2:16
2. Errors 2:11
3. Reverse 3:00
4. Seven 1:00
5. Storm 2:37
6. Turn 2:04
7. Promises 1:43
8. Heal 3:00
9. Sirens 2:46
10. Behind 3:13
11. Questions 1:38
12. Ashes 3:31
******************************
Total playing time: 28:59

tankcrimes.com
victimsinblood.com

Technical info

Input File: 01 - WALLS.mp3
Channels : 2
Sample Rate : 44100
Precision : 16-bit
Duration : 00:02:16.56 = 6022208 samples = 10241.9 CDDA sectors
File Size : 7.47M
Bit Rate : 438k
Sample Encoding: MPEG audio (layer I, II or III)
Comments :
Title=WALLS
Artist=Victims
Album=Sirens
Tracknumber=1
Year=2016
Genre=Crust, Hardcore



[ Hidden Text ]