*Artist: RasKar
*Album: 5
*Year: 2016
*Genre: Reggae
*Country: Russian Federation
*Format: mp3@CBR320kbps
*Size: 57MB

Tracklist:
1. Пять 2:57
2. До упаду 2:35
3. Бомбоклад (feat. Аддис Абеба) 3:25
4. Враги народа 3:53
5. Кнут 3:21
6. Анестезия (feat. Дмитрий Спирин) 3:37
7. Как ты себя чувствуешь? 2:46 364 кб/с
8. Мир&Покой 3:29
******************************
Total playing time: 26:03

vk.com

Technical info

Input File: RasKar - 1 Пять.mp3
Channels : 2
Sample Rate : 44100
Precision : 16-bit
Duration : 00:02:57.66 = 7834850 samples = 13324.6 CDDA sectors
File Size : 8.01M
Bit Rate : 361k
Sample Encoding: MPEG audio (layer I, II or III)
Comments :
Title=Пять
Artist=RasKar
Album=5
Tracknumber=01
Year=2016
Genre=Reggae



[ Hidden Text ]