*Artist: Life Destruction
*Album: Life Destruction [best of/compilation]
*Year: 2016
*Genre: D-beat
*Country: United Kingdom
*Format: mp3@CBR320kbps
*Size: 59MB

Tracklist:
1. Work (side noise) 02:03
2. No End (side noise) 00:49
3. Amphetamine Nightmare (side noise) 00:37
4. Stripped To The Bone (side noise) 01:10
5. Death From Above (side noise) 01:55
6. Attacked (side noise) 01:17
7. Suffering (side noise) 01:21
8. Wasted Life (side noise) 00:55
9. Torn Apart (side noise) 01:51
10. Work (side destruction) 02:04
11. Blown To Smithereens (side destruction) 01:46
12. Death From Above (side destruction) 01:47
13. Hellfirerains (side destruction) 01:32
14. Homeless (side destruction) 02:06
15. No Compensation (side destruction) 01:40
16. No End (side destruction) 00:46
17. Suffering (side destruction) 01:12
******************************
Total playing time: 24:51



Technical info

Input File: Life Destruction - Life Destruction - 01 Work (side noise).mp3
Channels : 2
Sample Rate : 44100
Precision : 16-bit
Duration : 00:02:03.68 = 5454068 samples = 9275.63 CDDA sectors
File Size : 5.09M
Bit Rate : 329k
Sample Encoding: MPEG audio (layer I, II or III)
Comments :
Title=Work (side noise)
Artist=Life Destruction
Album=Life Destruction
Tracknumber=1
Year=2016



[ Hidden Text ]