Help - Search - Members - Calendar
Full Version: Psychedelic Witchcraft - The Vision (2016)
Metal Area - Extreme Music Portal > Releases Area / Релизы > New Releases > Unformat R:
paganheart


*Artist: Psychedelic Witchcraft
*Album: The Vision
*Year: 2016
*Genre: 70's Hard Rock/Occult Rock/Female Vocal
*Country: Italy
*Format: mp3@CBR320kbps
*Size: 94MB

Tracklist:
01. A Creature
02. Witches Arise
03. Demon Liar
04. Wicked Ways
05. The Night
06. The Only One That
07. War
08. Different
09. Magic Hour Blues
******************************
Total playing time: 34:47



Extended info
Virginia Monti - Singer
Riccardo Giuffrè - Bass
Jacopo Fallai - Guitar
Mirko Buia - Drums


Technical info

Input File: 02 - Witches Arise.mp3
Channels : 2
Sample Rate : 44100
Precision : 16-bit
Duration : 00:04:11.59 = 11094899 samples = 18868.9 CDDA sectors
File Size : 11.0M
Bit Rate : 351k
Sample Encoding: MPEG audio (layer I, II or III)
Comments :
Title=Witches Arise
Artist=Psychedelic Witchcraft
Album=The Vision
Tracknumber=2/9
Year=2016
Genre=Rock
Discnumber=1



[ Hidden Text ]
Haunting
Вот это очень классный винтаж. Вроде ничего такого, но третий день уже слушаю и выключить совершенно не тянет.
avkruchinin
Хм, чуть не пропустил, забираю даже без превью, судя по стилю должно быть халяльно, заодно и ипишку стянул smile3.gif
Diflock
классика жанра banana.gif
vosmidesijatye
Кручиня отжарил. Вот и не думал, что ты угараешь по такому. Ну-ка признавайся, что ещё нраится из подобного?
avkruchinin
ЦИТАТА(vosmidesijatye @ May 11 2016, 16:34:52) *
Кручиня отжарил. Вот и не думал, что ты угараешь по такому. Ну-ка признавайся, что ещё нраится из подобного?

Хороший, добротный хард рок всегда в цене у меня, именно через него я в своё время пришёл в тяжмет.
vosmidesijatye
Плеяда оккульт/сайкоделик/винтаж/70`s/рок банд с женским вокалом пополнилась ещё одним имечком. Хорошо? Достойно, атмосферно, в меру блюзово. Искать новизны и откровения в таком смысла большого нет. Это либо в целом катит, либо нет. В наш период засилья этого поджанра релизов совсем уж слабого качества практически не выходит, все работы и коллективы вне зависимости от их стажа и достижений доставляют, но откровенных фэйлов не наблюдается. В данном случае все по стандарту — обложка, названия трэков, музыка, вокал — всё должно покатить, если нравится такая музыка, если нет — то и ловить здесь вряд ли будет что. Мне как ценителю жанра, релиз понравился.
Un4given
пластмассовый саунд с попыткой навесить эффектов под винтаж smile2.gif
vosmidesijatye
Попробуй переслушать. Пюрсон, конечно, самый сильный релиз года из такого пока, за ним следом идут Блат Церемони.
Tular
Очень приятно звучат, класс!
Leshiy666
Группа возродилась...
4 ноября выпустили второй полноформатник.
neoatheist
ЦИТАТА(vosmidesijatye @ May 16 2016, 18:29:18) *
Плеяда оккульт/сайкоделик/винтаж/70`s/рок банд с женским вокалом пополнилась ещё одним имечком.


Господа, что можете порекомедовать из подобного?
DMIYUR
ЦИТАТА(neoatheist @ Nov 5 2017, 20:36:24) *
Господа, что можете порекомедовать из подобного?


https://www.youtube.com/watch?v=ixedeALvT9o
Un4given
DMIYUR,
ничего что это дет-дум? )


ЦИТАТА(neoatheist @ 5th November 2017 - 21:36:24) *
Господа, что можете порекомедовать из подобного?

80-й чуть ниже назвал Purson и Blood Ceremony
Black Cat
ЦИТАТА(neoatheist @ Nov 5 2017, 19:36:24) *
Господа, что можете порекомедовать из подобного?

Blues Pills, Royal Tunder, Oath, Lucifer, Jess and the Ancient Ones, Electric Citizen, The Devil's Blood, Ruby the Hatchet, Sabbath Assembly, Mount Salem, Seremonia, Black Mountain.
Из более митольного в схожем ключе: Windhand, Alunah, Acid King, Bathsheba, Brume, Witch Mountain, Jex Thoth, Mount Salem, Hela.
Но самая таки годнота, это да, Purson и Blood Ceremony, я считаю.
neoatheist
ЦИТАТА(Black Cat @ Nov 5 2017, 22:16:01) *
Blues Pills, Royal Tunder, Oath, Lucifer, Jess and the Ancient Ones, Electric Citizen, The Devil's Blood, Ruby the Hatchet, Sabbath Assembly, Mount Salem, Seremonia, Black Mountain.
Из более митольного в схожем ключе: Windhand, Alunah, Acid King, Bathsheba, Brume, Witch Mountain, Jex Thoth, Mount Salem, Hela.
Но самая таки годнота, это да, Purson и Blood Ceremony, я считаю.


Это все с женским вокалом? 17.gif
Black Cat
ЦИТАТА(neoatheist @ Nov 5 2017, 21:08:44) *
Это все с женским вокалом? 17.gif

Ну да. bye.gif
Да, еще до кучи: Castle, Demon Lung, Shinin' Shade и мои земляки Mother Witch & Dead Water Ghosts.
This is a "lo-fi" version of our main content. To view the full version with more information, formatting and images, please click here.
Invision Power Board © 2001-2019 Invision Power Services, Inc.