Help - Search - Members - Calendar
Full Version: Mayfair - My Ghosts Inside (2016)
Metal Area - Extreme Music Portal > Releases Area / Релизы > Archive
aesteticvice


*Artist: Mayfair
*Album: My Ghosts Inside
*Year: 2016
*Genre: Psychedelic/Progressive Metal
*Country: Austria
*Format: mp3@CBR320kbps
*Size: 97MB

Tracklist:
01. Loss
02. My Ghosts Inside
03. Desert
04. Blinded by Your Light
05. When Angels and Demons Meet
06. Our Fire Starts Here
07. Ghostrider
08. Boom
09. Andermal
10. Schrei Es Raus
11. Until We Meet Again
******************************
Total playing time: 40:21



Extended info
rEnE - Gitarre
Mario "le Fate" - Gesang
Johannes - Bass
Jolly - Schlagzeug



Technical info

Input File: 02. My Ghosts Inside.mp3
Channels : 2
Sample Rate : 44100
Precision : 16-bit
Duration : 00:02:45.66 = 7305650 samples = 12424.6 CDDA sectors
File Size : 6.63M
Bit Rate : 320k
Sample Encoding: MPEG audio (layer I, II or III)
Comments :
Title=My Ghosts Inside
Artist=Mayfair
Album=My Ghosts Inside
Tracknumber=2
Year=2016
Genre=Progressive Metal



[ Hidden Text ]
DIAMOND555

Austria
orloff2000
Thank you very much, but unfortunately the link is no longer available 6.gif
Can anyone help?
Borderline1991
[ Hidden Text ]
This is a "lo-fi" version of our main content. To view the full version with more information, formatting and images, please click here.
Invision Power Board © 2001-2021 Invision Power Services, Inc.