Help - Search - Members - Calendar
Full Version: Sons Of Huns - While Sleeping Stay Awake (2015)
Metal Area - Extreme Music Portal > Releases Area / Релизы > Archive
TheTrooper916


*Artist: Sons Of Huns
*Album: While Sleeping Stay Awake
*Year: 2015
*Genre: Stoner Metal/Rock
*Country: United States
*Format: mp3@CBR320kbps
*Size: 85MB

Tracklist:
1. Osiris Slain 05:00
2. Ad Astra 03:51
3. An Evil Unseen 03:41
4. Eye In The Sky 02:50
5. Philospher’s Stone 04:03
6. Alchemist Part I 02:22
7. Alchemist Part II 06:05
8. While Sleeping Stay Awake 04:05
9. The Reaper Is Waiting For You 05:02
******************************
Total playing time: 36:59

Preview 1

Extended info
Sons Of Huns:
Peter Hughes: Guitars, Vocals.
Aaron Powell: Bass.
Ryan Northrop: Drums.


Technical info

Input File: 06 Alchemist Part I.mp3
Channels : 2
Sample Rate : 44100
Precision : 16-bit
Duration : 00:02:22.12 = 6267580 samples = 10659.1 CDDA sectors
File Size : 5.76M
Bit Rate : 324k
Sample Encoding: MPEG audio (layer I, II or III)
Comments :
Title=Alchemist Part I
Artist=Sons Of Huns
Album=While Sleeping Stay Awake
Tracknumber=6
Year=2015
Genre=Stoner Rock



[ Hidden Text ]
Amadeus
очень недурно
This is a "lo-fi" version of our main content. To view the full version with more information, formatting and images, please click here.
Invision Power Board © 2001-2021 Invision Power Services, Inc.