Help - Search - Members - Calendar
Full Version: Dopethrone & Fister - Dopethrone/Fister [split] (2016)
Metal Area - Extreme Music Portal > Releases Area / Релизы > Archive
TheTrooper916


*Artist: Dopethrone & Fister
*Album: Dopethrone/Fister [split]
*Year: 2016
*Genre: Doom/Sludge/Stoner Metal | Doom/Sludge/Stoner Metal
*Country: Canada | United States
*Format: mp3@CBR320kbps
*Size: 31MB

Tracklist:
1. Dopethrone - Host 05:09
2. Fister - The Failure 07:38
******************************
Total playing time: 12:47




Extended info
Dopethrone:
Vincent Houde: Guitars, Vocals.
Vyk: Bass.
Big Borman: Drums.

Fister:
Kenny Snarzyk: Bass, Vocals.
Marcus Newstead: Guitars, Additional Vocals.
Kirk Gatterer: Drums.


Technical info

Input File: Host-Sample.mp3
Channels : 2
Sample Rate : 44100
Precision : 16-bit
Duration : 00:00:30.04 = 1324764 samples = 2253 CDDA sectors
File Size : 1.20M
Bit Rate : 320k
Sample Encoding: MPEG audio (layer I, II or III)
Comments :
Title=Host
Artist=Dopethrone
Album=Dopethrone / Fister
Tracknumber=1
Year=2016
Genre=Sludge/Doom Metal



[ Hidden Text ]
vosmidesijatye
И этот трэк от канадцев выше всяких похвал. pray.gif pray.gif pray.gif
Lanceatum
Reupload please.
varlam4
[ Hidden Text ] 320
Evgundel
newer links (320): [ Hidden Text ]
This is a "lo-fi" version of our main content. To view the full version with more information, formatting and images, please click here.
Invision Power Board © 2001-2021 Invision Power Services, Inc.