Help - Search - Members - Calendar
Full Version: Fuerteser - Salvajes Sin Dios (2014)
Metal Area - Extreme Music Portal > Releases Area / Релизы > Archive
metadeat


*Artist: Fuerteser
*Album: Salvajes Sin Dios
*Year: 2014
*Genre: Heavy Metal
*Country: Argentina
*Format: mp3@CBR320kbps
*Size: 94MB

Tracklist:
1. Salvajes Sin Dios 04:51
2. Camino Al Abismo 04:06
3. Entre El Caos Y El Dolor 03:54
4. Niños De Cartón 03:37
5. Decide Tu Suerte 04:19
6. Condena Social 04:05
7. Pacto De Sangre 03:28
8. Torturan Mi Mente 03:51
9. Perro Guardian 04:13
10. Traición 04:26
******************************
Total playing time: 40:50



Extended info


Technical info

Input File: 01 - Salvajes sin Dios.mp3
Channels : 2
Sample Rate : 44100
Precision : 16-bit
Duration : 00:04:51.79 = 12868027 samples = 21884.4 CDDA sectors
File Size : 11.9M
Bit Rate : 327k
Sample Encoding: MPEG audio (layer I, II or III)
Comments :
Title=Salvajes sin Dios
Artist=Fuerteser
Album=Salvajes sin Dios
Tracknumber=01
Year=2014
Genre=Heavy Metal



[ Hidden Text ]
Metalizado

Thanks greetings from Argentina!
This is a "lo-fi" version of our main content. To view the full version with more information, formatting and images, please click here.
Invision Power Board © 2001-2022 Invision Power Services, Inc.