Help - Search - Members - Calendar
Full Version: Raging Speedhorn - Lost Ritual (2016)
Metal Area - Extreme Music Portal > Releases Area / Релизы > New Releases > Lossless
aesteticvice


*Artist: Raging Speedhorn
*Album: Lost Ritual
*Year: 2016
*Genre: Sludge/Stoner Metal
*Country: United Kingdom
*Format: mp3@CBR320kbps
*Size: 100MB

Tracklist:
01. Bring Out Your Dead
02. Halfway To Hell
03. Motörhead
04. Evil Or Mental
05. Ten Of Swords
06. Dogshit Blues
07. Hangman
08. Shit Outta Luck
09. Coming Home
10. Unleash The Serpent
******************************
Total playing time: 40:46




Extended info


Technical info

Input File: 03 - Motörhead.mp3
Channels : 2
Sample Rate : 44100
Precision : 16-bit
Duration : 00:02:57.94 = 7846978 samples = 13345.2 CDDA sectors
File Size : 7.25M
Bit Rate : 326k
Sample Encoding: MPEG audio (layer I, II or III)
Comments :
Title=Motörhead
Artist=Raging Speedhorn
Album=Lost Ritual
Tracknumber=03/10
Year=2016
Discnumber=1/1



[ Hidden Text ]
Razorbladeswaltz
ух, они ещё живы
vosmidesijatye
Напридумывал тэгов огульно
aesteticvice
ЦИТАТА(vosmidesijatye @ Jul 14 2016, 20:12:57) *
Напридумывал тэгов огульно

headcrab.png а ты че слышишь? и где тавой коммент тут?
Raging Speedhorn - Before The Sea Was Built (2007)
ну-ка удиви эрудицией
vosmidesijatye


Если это то что в тэгах то facessspalm.png
snot
Тэгофилы normal_Homerdisgust3.png
ent404
переходная стадия между сладжем и стоунером. или золотая середина, хз.
кому не хватает глубины и атмосферы первого и напрягает чрезмерная медитативность второго, бегом сюда.
думаю эти ребятки удовлетворят обе стороны аудитории. рокенролен посоны.
old
QUOTE(garmonbozia @ Jul 15 2016, 18:48:34) *
переходная стадия между сладжем и стоунером. или золотая середина, хз.
кому не хватает глубины и атмосферы первого и напрягает чрезмерная медитативность второго, бегом сюда.
думаю эти ребятки удовлетворят обе стороны аудитории. рокенролен посоны.

по превью мазафака какаято. ну да попробуем послушать
orloff2000
Thank you very much, but unfortunately the link is no longer available 6.gif
Can anyone help?
Borderline1991
[ Hidden Text ][ Hidden Text ]
This is a "lo-fi" version of our main content. To view the full version with more information, formatting and images, please click here.
Invision Power Board © 2001-2021 Invision Power Services, Inc.