Help - Search - Members - Calendar
Full Version: Inanimate Existence - Calling From A Dream (2016)
Metal Area - Extreme Music Portal > Releases Area / Релизы > Archive
necroscum


*Artist: Inanimate Existence
*Album: Calling From A Dream
*Year: 2016
*Genre: Progressive/Technical Death Metal
*Country: United States
*Format: mp3@CBR320kbps
*Size: 102MB

Tracklist:
01. Calling from a Dream
02. The Arcane Crystal
03. Shore of Rising Shadows
04. Pulse of the Mountain's Heart
05. Upon Whirling Winds
06. Dreaming of new Beginnings
07. Beneath the Mist
08. Falling into Malice
09. Burial at Sea
******************************
Total playing time: 35:27



Technical info

Input File: 02. The Arcane Crystal.mp3
Channels : 2
Sample Rate : 44100
Precision : 16-bit
Duration : 00:02:47.91 = 7404699 samples = 12593 CDDA sectors
File Size : 8.26M
Bit Rate : 394k
Sample Encoding: MPEG audio (layer I, II or III)
Comments :
Title=The Arcane Crystal
Artist=Inanimate Existence
Album=Calling From A Dream
Tracknumber=02/09
Year=2016



[ Hidden Text ]
aesteticvice

В стиль можно смело добавить Modern, группа узнаваема по прежнему, только лишь смягчила саунд, стало больше девочки на вокале и главное все это дело теперь на грувово-джентововом подсосе 21.gif в принципе очень неплохо если не претят данные обстоятельства, обидно конечно учитывая прошлые работы, они могли смело обойтись без этого дж дж дж... или уже не могли?



Dmitry1977
QUOTE(aesteticvice @ Sep 16 2016, 07:10:01) *
обидно конечно учитывая прошлые работы, они могли смело обойтись без этого дж дж дж... или уже не могли?


Мну бы сказал - обидно грустно до слез
ddx1
Ой, взрослые дяди же smile3.gif

ДИКО ВТАЩИВАЮСЬ ТАЩЕМТА!!11 metaler.gif
Hallelucination
Спасибо. Буду пытаться врубиться в этот альбом.
Dmitry1977
QUOTE(Hallelucination @ Sep 16 2016, 15:02:45) *
Спасибо. Буду пытаться врубиться в этот альбом.


Это необязательно, фигня альбом. Лучше в An Abstract Illusion врубайся!
Evilded
если сравнивать с предыдущими убойными работами, то да, этот ЛП не в коня корм. но если не знать вывески, то вполне себе средне годный дебют каких нибудь тинейджеров из оклахомы, с дж дж дж и бабим клинвойсом (который, кстати, вполне себе удобоварим). в любом случае, на расслушку однозначно, не зря ж с утра дважды без отврата влез в уши. пока 7/10.
Bitchkiller
Мда не ожидал я такого от них. Можно смело вычеркивать этих душных лохов, которые променяли какую-то самобытность на прирост в несколько сотен школьников. normal_Homerdisgust3.png

Если unique leader и дальше будет такую ccанину выпускать, то я знаю каким будет следующий альбом дидсов 15.gif
Язва
почитал местные отзывы и пропустил этот альбом
Metalass
Какое неприятие-то... уфф...

Ребята захотели как Fallujah порвать шаблон.
Отчасти получилось, звучит неплохо.
Передоз женского вокала и его качество добавляют мощную ложку дегтя в эти старания.
Слушается не очень цельно, но довольно легко.

Не думаю, что эксперимент полностью удался. Но все равно пришелся по вкусу.
Язва
Послушал их альбом 2017 года и решил всё-таки качнуть этот..
В общем и целом Evilded очень правильно его охарактеризовал:
ЦИТАТА(Evilded @ Sep 16 2016, 19:55:20) *
если сравнивать с предыдущими убойными работами, то да, этот ЛП не в коня корм. но если не знать вывески, то вполне себе средне годный дебют каких нибудь тинейджеров из оклахомы, с дж дж дж и бабим клинвойсом (который, кстати, вполне себе удобоварим). в любом случае, на расслушку однозначно, не зря ж с утра дважды без отврата влез в уши. пока 7/10.

7/10
SyncestrA
Единственный альбом группы, который понравился. В следующем проговые кусочки прям очень хороши, а всё остальное вообще не зацепило 21.gif

320 к (проверенные) / 86 Mb:
[ Hidden Text ]
This is a "lo-fi" version of our main content. To view the full version with more information, formatting and images, please click here.
Invision Power Board © 2001-2020 Invision Power Services, Inc.